buy rdp

IT Chapter Two (2019) ORG AMZN/BD Untouched DD+ 5.1CH 640Kbps Multi Audio [Hindi + Tamil + Telugu] Download

If You Found A Dead Link Please Report Below In Comment Box

IT Chapter Two (2019) ORG AMZN/BD Untouched DD+ 5.1CH 640Kbps Multi Audio [Hindi + Tamil + Telugu] Download

IT Chapter Two (2019) ORG AMZN/BD Untouched DD+ 5.1CH 640Kbps Multi Audio [Hindi + Tamil + Telugu]

~~MoviezAddiction.Site~~Audio Source : AMZN
Format                                   : E-AC-3
Format/Info                              : Enhanced AC-3
Commercial name                          : Dolby Digital Plus
Duration                                 : 2 h 49 min
Bit rate mode                            : Constant
Bit rate                                 : 640 kb/s
Channel(s)                               : 6 channels
Channel layout                           : L R C LFE Ls Rs
Sampling rate                            : 48.0 kHz
Frame rate                               : 31.250 FPS (1536 SPF)
Compression mode                         : Lossy
Stream size                              : 775 MiB (100%)
Language                        : Hindi + Tamil + Telugu
Service kind                             : Complete Main

Audio Source : BD
Format                                   : AC-3
Format/Info                              : Audio Coding 3
Commercial name                          : Dolby Digital
Duration                                 : 2 h 49 min
Bit rate mode                            : Constant
Bit rate                                 : 448 kb/s
Channel(s)                               : 6 channels
Channel layout                           : L R C LFE Ls Rs
Sampling rate                            : 48.0 kHz
Frame rate                               : 31.250 FPS (1536 SPF)
Bit depth                                : 16 bits
Compression mode                         : Lossy
Stream size                              : 543 MiB (100%)
Language                        : Hindi + Tamil + Telugu
Service kind                             : Complete Main

Special Thanks to The Punisher and Hammer for ORG Audios

Download Links

It Chapter Two is a 2019 American supernatural horror film and a sequel to the 2017 film It, both based on the 1986 novel by Stephen King. The film is directed by Andy Muschietti, returning from the first film, with a screenplay by Gary Dauberman. Set in 2016, 27 years after the first film, it stars Jessica Chastain, James McAvoy, Bill Hader, Isaiah Mustafa, Jay Ryan, James Ransone, Andy Bean, and Bill Skarsgård, who returns as Pennywise the Dancing Clown. It is the second installment of the It film series.

Be the first to comment

Leave a Reply

Your email address will not be published.


*