buy rdp

IT Chapter One (2017) ORG AMZN/BD Untouched DD+ 5.1CH 640Kbps Multi Audio [Hindi + Tamil + Telugu] Download

If You Found A Dead Link Please Report Below In Comment Box

IT Chapter One (2017) ORG AMZN/BD Untouched DD+ 5.1CH 640Kbps Multi Audio [Hindi + Tamil + Telugu] Download

IT Chapter One (2017) ORG AMZN/BD Untouched DD+ 5.1CH 640Kbps Multi Audio [Hindi + Tamil + Telugu]

~~MoviezAddiction.Site~~Audio Source : AMZN
Format                                   : E-AC-3
Format/Info                              : Enhanced AC-3
Commercial name                          : Dolby Digital Plus
Duration                                 : 2 h 14 min
Bit rate mode                            : Constant
Bit rate                                 : 640 kb/s
Channel(s)                               : 6 channels
Channel layout                           : L R C LFE Ls Rs
Sampling rate                            : 48.0 kHz
Frame rate                               : 31.250 FPS (1536 SPF)
Compression mode                         : Lossy
Stream size                              : 616 MiB (100%)
Language                        : Hindi + Tamil + Telugu
Service kind                             : Complete Main

Audio Source : BD
Format                                   : AC-3
Format/Info                              : Audio Coding 3
Commercial name                          : Dolby Digital
Duration                                 : 2 h 14 min
Bit rate mode                            : Constant
Bit rate                                 : 448 kb/s
Channel(s)                               : 6 channels
Channel layout                           : L R C LFE Ls Rs
Sampling rate                            : 48.0 kHz
Frame rate                               : 31.250 FPS (1536 SPF)
Bit depth                                : 16 bits
Compression mode                         : Lossy
Stream size                              : 432 MiB (100%)
Language                        : Hindi + Tamil + Telugu
Service kind                             : Complete Main

Special Thanks to The Punisher, Mr.Rajput, The DNK for ORG Audios

Download Links

It, retroactively known as It Chapter One, is a 2017 American supernatural horror film based on Stephen King’s 1986 novel of the same name.[5] Produced by New Line Cinema, KatzSmith Productions, Lin Pictures, Vertigo Entertainment,[6][7] and distributed by Warner Bros.[8] It is the first film in the It film series as well as being the second adaptation following Tommy Lee Wallace’s 1990 miniseries.[9][10][11] The film tells the story of seven children in Derry, Maine, who are terrorized by the eponymous being, only to face their own personal demons in the process.[12][13] The film is also known as It: Part 1 – The Losers’ Club.[N 1]

Be the first to comment

Leave a Reply

Your email address will not be published.


*